HDSky伟德国际1946手机版www.bv1946.com

 找回密码
 立即注册
用QQ账号登陆 用微博账号登陆 只需一步,快速开始
查看: 625|伟德app手机版客户端: 61
打印 上一主题 下一主题

金刚:骷髅岛 2017.2160p.BluRay.x264.8bit.SDR.DTS-SWTYBLZ 42GB

  [复制链接]
4095主题 27好友 449万积分
管理员
Rank: 9Rank: 9Rank: 9
  • TA的每日心情
    开心
    2016-10-13 10:31
  • 签到天数: 133 天[LV.7]常住居民III
    激情
    16240
    金币
    4416698
    威望
    27210
    积分
    4496083
    帖子
    8580
    宣传大使 原创先锋奖 回帖大师 最佳帅哥奖 热心助人奖 管理人员勋章 财富大师奖 巡查大使勋章 特殊贡献奖 魅力会员奖 个性SHOW奖 时尚达人 在线王 天秤座 终身成就奖 知名影评人勋章 精品大师奖
    跳转到指定楼层
    楼主
    发表于 2017-11-30 12:38:44 |只看该作者 |倒序浏览
    ce4ec1aa8193740a044e62faeeb4852e.jpg

    ◎译  名 金刚:骷髅岛
    ◎片  名 Kong: Skull Island
    ◎年  代 2017
    ◎产  地 美国/中国大陆/澳大利亚/加拿大
    ◎类  别 动作/奇幻/冒险
    ◎语  言 英语/越南语/日语
    ◎上映日期 2017-02-28(伦敦首映)/2017-03-10(美国)/2017-03-24(中国大陆)
    ◎IMDb评分  6.7/10 from 169,908 users
    ◎IMDb链接  http://www.imdb.com/title/tt3731562/
    ◎豆瓣评分 6.6/10 from 122,423 users
    ◎豆瓣链接 https://movie.douban.com/subject/26309788/
    ◎片  长 119分钟
    ◎导  演 乔丹·沃格特-罗伯茨 Jordan Vogt-Roberts
    ◎主  演 汤姆·希德勒斯顿 Tom Hiddleston
          布丽·拉尔森 Brie Larson
          塞缪尔·杰克逊 Samuel L. Jackson
          约翰·古德曼 John Goodman
          景甜 Tian Jing
          约翰·C·赖利 John C. Reilly
          托比·凯贝尔 Toby Kebbell
          科里·霍金斯 Corey Hawkins
          汤姆·威尔金森 Tom Wilkinson
          托马斯·曼 Thomas Mann
          杰森·米切尔 Jason Mitchell
          谢伊·惠格姆 Shea Whigham
          约翰·奥提兹 John Ortiz
          尤金·科德罗 Eugene Cordero

    ◎简  介

      上世纪70年代,一支集结了科考队员、探险家、战地摄影记者、军人的探险队,冒险前往南太平洋上的神秘岛屿——骷髅岛。他们的到来惊扰了岛上之神——史上最大金刚。经过一番惨烈的激战之后,探险队员散落在了岛屿各处。此时,队员们才意识到这次探险并不是一次单纯的科考任务,而是去探索怪兽存在的证明。
      在这片与世隔绝、危险密布的丛林,无数怪异的史前生物暗藏其中,时刻威胁着他们的生命。队员们还遇到了神秘的原始部落,金刚的身世和其守护岛屿的原因也被逐渐揭开,原来,恐怖阴森的骷髅岛上还蛰伏着更凶狠残暴的怪兽……


    Video
    ID                                       : 1
    Format                                   : AVC
    Format/Info                              : Advanced Video Codec
    Format profile                           : [email protected]
    Format settings, CABAC                   : Yes
    Format settings, ReFrames                : 5 frames
    Codec ID                                 : V_MPEG4/ISO/AVC
    Duration                                 : 1 h 58 min
    Bit rate                                 : 42.1 Mb/s
    Width                                    : 3 840 pixels
    Height                                   : 1 600 pixels
    Display aspect ratio                     : 2.40:1
    Frame rate mode                          : Constant
    Frame rate                               : 23.976 (24000/1001) FPS
    Color space                              : YUV
    Chroma subsampling                       : 4:2:0
    Bit depth                                : 8 bits
    Scan type                                : Progressive
    Bits/(Pixel*Frame)                       : 0.286
    Stream size                              : 34.8 GiB (82%)
    Title                                    : Kong.Skull.Island.2017.2160p.BluRay.x264.8bit.SDR.DTS-HD.MA.TrueHD.7.1.Atmos-SWTYBLZ
    Writing library                          : x264 core 148 r2748 97eaef2
    Encoding settings                        : cabac=1 / ref=5 / deblock=1:-1:-1 / analyse=0x3:0x113 / me=umh / subme=10 / psy=1 / psy_rd=1.00:0.15 / mixed_ref=1 / me_range=48 / chroma_me=1 / trellis=2 / 8x8dct=1 / cqm=0 / deadzone=21,11 / fast_pskip=1 / chroma_qp_offset=-3 / threads=50 / lookahead_threads=4 / sliced_threads=0 / nr=0 / decimate=0 / interlaced=0 / bluray_compat=0 / constrained_intra=0 / bframes=3 / b_pyramid=2 / b_adapt=2 / b_bias=0 / direct=3 / weightb=1 / open_gop=0 / weightp=2 / keyint=250 / keyint_min=23 / scenecut=40 / intra_refresh=0 / rc_lookahead=50 / rc=crf / mbtree=1 / crf=18.0 / qcomp=0.60 / qpmin=0 / qpmax=69 / qpstep=4 / ip_ratio=1.40 / aq=1:1.00
    Language                                 : English
    Default                                  : Yes
    Forced                                   : No

    Audio #1
    ID                                       : 2
    Format                                   : TrueHD
    Format profile                           : TrueHD+Atmos / TrueHD
    Codec ID                                 : A_TRUEHD
    Duration                                 : 1 h 58 min
    Bit rate mode                            : Variable
    Bit rate                                 : 4 218 kb/s
    Maximum bit rate                         : 6 912 kb/s
    Channel(s)                               : Object Based / 8 channels
    Channel positions                        : Object Based / Front: L C R, Side: L R, Back: L R, LFE
    Sampling rate                            :  / 48.0 kHz
    Frame rate                               : 1 200.000 FPS (40 spf)
    Compression mode                         : Lossless
    Stream size                              : 3.49 GiB (8%)
    Title                                    : Kong.Skull.Island.2017.2160p.BluRay.x264.8bit.SDR.DTS-HD.MA.TrueHD.7.1.Atmos-SWTYBLZ
    Language                                 : English
    Default                                  : Yes
    Forced                                   : No

    Audio #2
    ID                                       : 3
    Format                                   : DTS
    Format/Info                              : Digital Theater Systems
    Format profile                           : MA / Core
    Mode                                     : 16
    Format settings, Endianness              : Big
    Codec ID                                 : A_DTS
    Duration                                 : 1 h 58 min
    Bit rate mode                            : Variable / Constant
    Bit rate                                 : 4 205 kb/s / 1 509 kb/s
    Channel(s)                               : 8 channels / 6 channels
    Channel positions                        : Front: L C R, Side: L R, Back: L R, LFE / Front: L C R, Side: L R, LFE
    Sampling rate                            : 48.0 kHz
    Frame rate                               : 93.750 FPS (512 spf)
    Bit depth                                : 24 bits
    Compression mode                         : Lossless / Lossy
    Stream size                              : 3.48 GiB (8%)
    Title                                    : Kong.Skull.Island.2017.2160p.BluRay.x264.8bit.SDR.DTS-HD.MA.TrueHD.7.1.Atmos-SWTYBLZ
    Language                                 : English
    Default                                  : No
    Forced                                   : No

    Audio #3
    ID                                       : 4
    Format                                   : AC-3
    Format/Info                              : Audio Coding 3
    Format settings, Endianness              : Big
    Codec ID                                 : A_AC3
    Duration                                 : 1 h 58 min
    Bit rate mode                            : Constant
    Bit rate                                 : 640 kb/s
    Channel(s)                               : 6 channels
    Channel positions                        : Front: L C R, Side: L R, LFE
    Sampling rate                            : 48.0 kHz
    Frame rate                               : 31.250 FPS (1536 spf)
    Bit depth                                : 16 bits
    Compression mode                         : Lossy
    Stream size                              : 380 MiB (1%)
    Title                                    : Kong.Skull.Island.2017.2160p.BluRay.x264.8bit.SDR.DTS-HD.MA.TrueHD.7.1.Atmos-SWTYBLZ
    Language                                 : English
    Service kind                             : Complete Main
    Default                                  : No
    Forced                                   : No

    Text #1
    ID                                       : 5
    Format                                   : UTF-8
    Codec ID                                 : S_TEXT/UTF8
    Codec ID/Info                            : UTF-8 Plain Text
    Duration                                 : 1 h 54 min
    Bit rate                                 : 46 b/s
    Count of elements                        : 1248
    Stream size                              : 38.6 KiB (0%)
    Title                                    : English-SRT
    Language                                 : English
    Default                                  : Yes
    Forced                                   : No

    Text #2
    ID                                       : 6
    Format                                   : PGS
    Muxing mode                              : zlib
    Codec ID                                 : S_HDMV/PGS
    Codec ID/Info                            : Picture based subtitle format used on BDs/HD-DVDs
    Duration                                 : 1 h 58 min
    Bit rate                                 : 31.4 kb/s
    Count of elements                        : 3060
    Stream size                              : 26.6 MiB (0%)
    Title                                    : English-PGS
    Language                                 : English
    Default                                  : No
    Forced                                   : No

    Text #3
    ID                                       : 7
    Format                                   : PGS
    Muxing mode                              : zlib
    Codec ID                                 : S_HDMV/PGS
    Codec ID/Info                            : Picture based subtitle format used on BDs/HD-DVDs
    Duration                                 : 1 h 57 min
    Bit rate                                 : 21.9 kb/s
    Count of elements                        : 2420
    Stream size                              : 18.4 MiB (0%)
    Title                                    : French-PGS
    Language                                 : French
    Default                                  : No
    Forced                                   : No

    Text #4
    ID                                       : 8
    Format                                   : PGS
    Muxing mode                              : zlib
    Codec ID                                 : S_HDMV/PGS
    Codec ID/Info                            : Picture based subtitle format used on BDs/HD-DVDs
    Duration                                 : 1 h 57 min
    Bit rate                                 : 24.7 kb/s
    Count of elements                        : 2468
    Stream size                              : 20.8 MiB (0%)
    Title                                    : Chinese-PGS
    Language                                 : Chinese
    Default                                  : No
    Forced                                   : No

    Text #5
    ID                                       : 9
    Format                                   : PGS
    Muxing mode                              : zlib
    Codec ID                                 : S_HDMV/PGS
    Codec ID/Info                            : Picture based subtitle format used on BDs/HD-DVDs
    Duration                                 : 1 h 58 min
    Bit rate                                 : 24.9 kb/s
    Count of elements                        : 2566
    Stream size                              : 21.0 MiB (0%)
    Title                                    : Chinese-PGS
    Language                                 : Chinese
    Default                                  : No
    Forced                                   : No

    Text #6
    ID                                       : 10
    Format                                   : PGS
    Muxing mode                              : zlib
    Codec ID                                 : S_HDMV/PGS
    Codec ID/Info                            : Picture based subtitle format used on BDs/HD-DVDs
    Duration                                 : 1 h 57 min
    Bit rate                                 : 24.4 kb/s
    Count of elements                        : 2586
    Stream size                              : 20.6 MiB (0%)
    Title                                    : Chinese-PGS
    Language                                 : Chinese
    Default                                  : No
    Forced                                   : No

    Text #7
    ID                                       : 11
    Format                                   : PGS
    Muxing mode                              : zlib
    Codec ID                                 : S_HDMV/PGS
    Codec ID/Info                            : Picture based subtitle format used on BDs/HD-DVDs
    Duration                                 : 1 h 57 min
    Bit rate                                 : 15.8 kb/s
    Count of elements                        : 2540
    Stream size                              : 13.3 MiB (0%)
    Title                                    : Korean-PGS
    Language                                 : Korean
    Default                                  : No
    Forced                                   : No

    Text #8
    ID                                       : 12
    Format                                   : PGS
    Muxing mode                              : zlib
    Codec ID                                 : S_HDMV/PGS
    Codec ID/Info                            : Picture based subtitle format used on BDs/HD-DVDs
    Duration                                 : 1 h 57 min
    Bit rate                                 : 26.5 kb/s
    Count of elements                        : 2562
    Stream size                              : 22.3 MiB (0%)
    Title                                    : Spanish-PGS
    Language                                 : Spanish
    Default                                  : No
    Forced                                   : No

    Text #9
    ID                                       : 13
    Format                                   : PGS
    Muxing mode                              : zlib
    Codec ID                                 : S_HDMV/PGS
    Codec ID/Info                            : Picture based subtitle format used on BDs/HD-DVDs
    Duration                                 : 1 h 57 min
    Bit rate                                 : 26.0 kb/s
    Count of elements                        : 2544
    Stream size                              : 21.9 MiB (0%)
    Title                                    : Portuguese-PGS
    Language                                 : Portuguese
    Default                                  : No
    Forced                                   : No

    Text #10
    ID                                       : 14
    Format                                   : PGS
    Muxing mode                              : zlib
    Codec ID                                 : S_HDMV/PGS
    Codec ID/Info                            : Picture based subtitle format used on BDs/HD-DVDs
    Duration                                 : 1 h 57 min
    Bit rate                                 : 13.7 kb/s
    Count of elements                        : 2534
    Stream size                              : 11.5 MiB (0%)
    Title                                    : Arabic-PGS
    Language                                 : Arabic
    Default                                  : No
    Forced                                   : No

    Text #11
    ID                                       : 15
    Format                                   : PGS
    Muxing mode                              : zlib
    Codec ID                                 : S_HDMV/PGS
    Codec ID/Info                            : Picture based subtitle format used on BDs/HD-DVDs
    Duration                                 : 1 h 57 min
    Bit rate                                 : 25.1 kb/s
    Count of elements                        : 2438
    Stream size                              : 21.1 MiB (0%)
    Title                                    : Croatian-PGS
    Language                                 : Croatian
    Default                                  : No
    Forced                                   : No

    Text #12
    ID                                       : 16
    Format                                   : PGS
    Muxing mode                              : zlib
    Codec ID                                 : S_HDMV/PGS
    Codec ID/Info                            : Picture based subtitle format used on BDs/HD-DVDs
    Duration                                 : 1 h 57 min
    Bit rate                                 : 22.5 kb/s
    Count of elements                        : 1704
    Stream size                              : 19.0 MiB (0%)
    Title                                    : Danish-PGS
    Language                                 : Danish
    Default                                  : No
    Forced                                   : No

    Text #13
    ID                                       : 17
    Format                                   : PGS
    Muxing mode                              : zlib
    Codec ID                                 : S_HDMV/PGS
    Codec ID/Info                            : Picture based subtitle format used on BDs/HD-DVDs
    Duration                                 : 1 h 57 min
    Bit rate                                 : 23.4 kb/s
    Count of elements                        : 2512
    Stream size                              : 19.8 MiB (0%)
    Title                                    : Finnish-PGS
    Language                                 : Finnish
    Default                                  : No
    Forced                                   : No

    Text #14
    ID                                       : 18
    Format                                   : PGS
    Muxing mode                              : zlib
    Codec ID                                 : S_HDMV/PGS
    Codec ID/Info                            : Picture based subtitle format used on BDs/HD-DVDs
    Duration                                 : 1 h 57 min
    Bit rate                                 : 26.3 kb/s
    Count of elements                        : 2298
    Stream size                              : 22.1 MiB (0%)
    Title                                    : Greek-PGS
    Language                                 : Greek
    Default                                  : No
    Forced                                   : No

    Text #15
    ID                                       : 19
    Format                                   : PGS
    Muxing mode                              : zlib
    Codec ID                                 : S_HDMV/PGS
    Codec ID/Info                            : Picture based subtitle format used on BDs/HD-DVDs
    Duration                                 : 1 h 57 min
    Bit rate                                 : 21.0 kb/s
    Count of elements                        : 2580
    Stream size                              : 17.7 MiB (0%)
    Title                                    : Hebrew-PGS
    Language                                 : Hebrew
    Default                                  : No
    Forced                                   : No

    Text #16
    ID                                       : 20
    Format                                   : PGS
    Muxing mode                              : zlib
    Codec ID                                 : S_HDMV/PGS
    Codec ID/Info                            : Picture based subtitle format used on BDs/HD-DVDs
    Duration                                 : 1 h 57 min
    Bit rate                                 : 24.9 kb/s
    Count of elements                        : 2514
    Stream size                              : 21.0 MiB (0%)
    Title                                    : Hungarian-PGS
    Language                                 : Hungarian
    Default                                  : No
    Forced                                   : No

    Text #17
    ID                                       : 21
    Format                                   : PGS
    Muxing mode                              : zlib
    Codec ID                                 : S_HDMV/PGS
    Codec ID/Info                            : Picture based subtitle format used on BDs/HD-DVDs
    Duration                                 : 1 h 57 min
    Bit rate                                 : 22.8 kb/s
    Count of elements                        : 1940
    Stream size                              : 19.2 MiB (0%)
    Title                                    : Norwegian-PGS
    Language                                 : Norwegian
    Default                                  : No
    Forced                                   : No

    Text #18
    ID                                       : 22
    Format                                   : PGS
    Muxing mode                              : zlib
    Codec ID                                 : S_HDMV/PGS
    Codec ID/Info                            : Picture based subtitle format used on BDs/HD-DVDs
    Duration                                 : 1 h 57 min
    Bit rate                                 : 26.9 kb/s
    Count of elements                        : 2550
    Stream size                              : 22.6 MiB (0%)
    Title                                    : Portuguese-PGS
    Language                                 : Portuguese
    Default                                  : No
    Forced                                   : No

    Text #19
    ID                                       : 23
    Format                                   : PGS
    Muxing mode                              : zlib
    Codec ID                                 : S_HDMV/PGS
    Codec ID/Info                            : Picture based subtitle format used on BDs/HD-DVDs
    Duration                                 : 1 h 57 min
    Bit rate                                 : 24.5 kb/s
    Count of elements                        : 2344
    Stream size                              : 20.7 MiB (0%)
    Title                                    : Romanian-PGS
    Language                                 : Romanian
    Default                                  : No
    Forced                                   : No

    Text #20
    ID                                       : 24
    Format                                   : PGS
    Muxing mode                              : zlib
    Codec ID                                 : S_HDMV/PGS
    Codec ID/Info                            : Picture based subtitle format used on BDs/HD-DVDs
    Duration                                 : 1 h 57 min
    Bit rate                                 : 24.0 kb/s
    Count of elements                        : 2518
    Stream size                              : 20.3 MiB (0%)
    Title                                    : Swedish-PGS
    Language                                 : Swedish
    Default                                  : No
    Forced                                   : No

    Text #21
    ID                                       : 25
    Format                                   : PGS
    Muxing mode                              : zlib
    Codec ID                                 : S_HDMV/PGS
    Codec ID/Info                            : Picture based subtitle format used on BDs/HD-DVDs
    Duration                                 : 1 h 57 min
    Bit rate                                 : 25.9 kb/s
    Count of elements                        : 2574
    Stream size                              : 21.8 MiB (0%)
    Title                                    : Thai-PGS
    Language                                 : Thai
    Default                                  : No
    Forced                                   : No

    Text #22
    ID                                       : 26
    Format                                   : PGS
    Muxing mode                              : zlib
    Codec ID                                 : S_HDMV/PGS
    Codec ID/Info                            : Picture based subtitle format used on BDs/HD-DVDs
    Duration                                 : 1 h 57 min
    Bit rate                                 : 25.2 kb/s
    Count of elements                        : 2420
    Stream size                              : 21.2 MiB (0%)
    Title                                    : Turkish-PGS
    Language                                 : Turkish
    Default                                  : No
    Forced                                   : No

    Text #23
    ID                                       : 27
    Format                                   : PGS
    Muxing mode                              : zlib
    Codec ID                                 : S_HDMV/PGS
    Codec ID/Info                            : Picture based subtitle format used on BDs/HD-DVDs
    Duration                                 : 1 h 58 min
    Bit rate                                 : 61.3 kb/s
    Count of elements                        : 4354
    Stream size                              : 51.9 MiB (0%)
    Title                                    : Chinese-PGS
    Language                                 : Chinese
    Default                                  : No
    Forced                                   : No

    Menu
    00:00:00.000                             : en:Chapter 1
    00:08:54.742                             : en:Chapter 2
    00:19:51.773                             : en:Chapter 3
    00:30:01.132                             : en:Chapter 4
    00:40:00.106                             : en:Chapter 5
    00:50:13.260                             : en:Chapter 6
    01:00:49.729                             : en:Chapter 7
    01:10:29.600                             : en:Chapter 8
    01:18:05.889                             : en:Chapter 9
    01:30:12.657                             : en:Chapter 10
    01:39:09.026                             : en:Chapter 11
    01:47:05.836                             : en:Chapter 12

    伟德app手机版客户端下载:

    xiazai.jpg
    游客,如果您要查看本帖隐藏内容请伟德app手机版客户端  VIP免伟德app手机版客户端查看、免金币下载全站资源 自助在线开通VIP



    支付宝扫一扫 打赏

    微信扫一扫 打赏
    郑重声明 HDSky所有影视作品来自互联网公开渠道,内容系自动转载供网友交流学习,影视版权均归原电影公司所有, 我们不提供任何影片压制、存储及传播服务,如果喜欢请购买正版!转载内容如有侵权请与 [email protected] 联系 我们将尽快删除!
    0主题 0好友 3364积分
    领衔主演 Lv.6
    Rank: 8Rank: 8
  • TA的每日心情
    开心
    9 小时前
  • 签到天数: 541 天[LV.9]以坛为家II
    激情
    2353
    金币
    8
    威望
    0
    积分
    3364
    帖子
    1003
    沙发
    发表于 2017-11-30 13:15:26 |只看该作者
    啊啊啊啊啊啊啊啊啊啊啊啊啊啊啊啊啊啊啊啊啊啊啊啊啊啊啊啊啊啊啊啊啊啊啊啊啊
    伟德app手机版客户端 使用道具 举报
    0主题 0好友 969积分
    专业龙套 Lv.4
    Rank: 4
  • TA的每日心情
    擦汗
    6 天前
  • 签到天数: 53 天[LV.5]常住居民I
    激情
    528
    金币
    127
    威望
    5
    积分
    969
    帖子
    304
    板凳
    发表于 2017-11-30 13:40:24 |只看该作者
    谢谢分享
    伟德app手机版客户端 使用道具 举报
    0主题 0好友 84积分
    普通观众 Lv.2
    Rank: 2
  • TA的每日心情

    3 天前
  • 签到天数: 13 天[LV.3]偶尔看看II
    激情
    51
    金币
    12
    威望
    0
    积分
    84
    帖子
    21
    地板
    发表于 2017-11-30 14:21:38 |只看该作者
    好评下载看看
    伟德app手机版客户端 使用道具 举报
    0主题 0好友 212积分
    群众演员 Lv.3
    Rank: 3Rank: 3
  • TA的每日心情
    擦汗
    2017-12-3 03:16
  • 签到天数: 18 天[LV.4]偶尔看看III
    激情
    90
    金币
    70
    威望
    0
    积分
    212
    帖子
    52
    5#
    发表于 2017-11-30 15:01:06 |只看该作者
    这个精彩谢谢分享
    伟德app手机版客户端 使用道具 举报
    0主题 0好友 410积分
    群众演员 Lv.3
    Rank: 3Rank: 3
  • TA的每日心情
    开心
    前天 10:19
  • 签到天数: 39 天[LV.5]常住居民I
    激情
    248
    金币
    1
    威望
    0
    积分
    410
    帖子
    161
    6#
    发表于 2017-11-30 15:13:16 |只看该作者
    谢谢分享
    伟德app手机版客户端 使用道具 举报
    0主题 0好友 158积分
    普通观众 Lv.2
    Rank: 2
  • TA的每日心情
    无聊
    2017-9-30 11:49
  • 签到天数: 3 天[LV.2]偶尔看看I
    激情
    90
    金币
    6
    威望
    0
    积分
    158
    帖子
    62
    7#
    发表于 2017-11-30 15:22:33 |只看该作者
    好看 好看 好好看
    伟德app手机版客户端 使用道具 举报
    0主题 0好友 158积分
    普通观众 Lv.2
    Rank: 2
  • TA的每日心情
    无聊
    2017-9-30 11:49
  • 签到天数: 3 天[LV.2]偶尔看看I
    激情
    90
    金币
    6
    威望
    0
    积分
    158
    帖子
    62
    8#
    发表于 2017-11-30 15:27:00 |只看该作者
    好看 好看 好好看
    伟德app手机版客户端 使用道具 举报
    0主题 0好友 102积分
    普通观众 Lv.2
    Rank: 2
  • TA的每日心情

    2017-11-11 14:02
  • 签到天数: 12 天[LV.3]偶尔看看II
    激情
    68
    金币
    0
    威望
    0
    积分
    102
    帖子
    34
    9#
    发表于 2017-11-30 17:20:17 |只看该作者
    41114654156412132
    伟德app手机版客户端 使用道具 举报
    0主题 0好友 439积分
    群众演员 Lv.3
    Rank: 3Rank: 3
  • TA的每日心情
    开心
    前天 20:24
  • 签到天数: 56 天[LV.5]常住居民I
    激情
    288
    金币
    11
    威望
    10
    积分
    439
    帖子
    120
    10#
    发表于 2017-11-30 17:29:38 |只看该作者
    伟德app手机版客户端赚点金币
    伟德app手机版客户端 使用道具 举报
    您需要登录后才可以回帖 登录 | 立即注册
    我在微博等你
    Archiver|手机版|HDSky伟德国际1946手机版www.bv1946.com   GMT+8, 2017-12-17 19:23 , Processed in 0.142078 second(s), 37 queries .
    Powered by Discuz! X2.5 © 2012-2016 HDSky Inc.
    回顶部