HDSky伟德国际1946手机版www.bv1946.com

 找回密码
 立即注册
用QQ账号登陆 用微博账号登陆 只需一步,快速开始
查看: 314|伟德app手机版客户端: 27
打印 上一主题 下一主题

银河护卫队2 2160p.BluRay.x265.10bit.SDR.DTS-HD.MA.TrueHD.7.1.Atmos-SWT 31GB

[复制链接]
4134主题 27好友 449万积分
管理员
Rank: 9Rank: 9Rank: 9
  • TA的每日心情
    开心
    2016-10-13 10:31
  • 签到天数: 133 天[LV.7]常住居民III
    激情
    16005
    金币
    4413861
    威望
    27210
    积分
    4492951
    帖子
    8520
    宣传大使 原创先锋奖 回帖大师 最佳帅哥奖 热心助人奖 管理人员勋章 财富大师奖 巡查大使勋章 特殊贡献奖 魅力会员奖 个性SHOW奖 时尚达人 在线王 天秤座 终身成就奖 知名影评人勋章 精品大师奖
    跳转到指定楼层
    楼主
    发表于 2017-10-11 16:07:04 |只看该作者 |倒序浏览
    894f342e9873a4e85f3bf2382fc72d58.jpg

    ◎译  名 银河护卫队2/星际异攻队2(台)/银河守护队2(港)/银护2
    ◎片  名 Guardians of the Galaxy Vol. 2
    ◎年  代 2017
    ◎产  地 美国
    ◎类  别 动作/科幻/冒险
    ◎语  言 英语
    ◎上映日期 2017-04-19(洛杉矶首映)/2017-05-05(中国大陆)/2017-05-05(美国)
    ◎IMDb评分  7.8/10 from 273,059 users
    ◎IMDb链接  http://www.imdb.com/title/tt3896198/
    ◎豆瓣评分 8.1/10 from 180,564 users
    ◎豆瓣链接 https://movie.douban.com/subject/25937854/
    ◎片  长 136分钟
    ◎导  演 詹姆斯·冈 James Gunn
    ◎主  演 克里斯·帕拉特 Chris Pratt
          佐伊·索尔达娜 Zoe Saldana
          戴夫·巴蒂斯塔 Dave Batista
          范·迪塞尔 Vin Diesel
          布莱德利·库珀 Bradley Cooper
          凯伦·吉兰 Karen Gillan
          迈克尔·鲁克 Michael Rooker
          庞·克莱门捷夫 Pom Klementieff
          伊丽莎白·德比茨基 Elizabeth Debicki
          肖恩·冈 Sean Gunn
          库尔特·拉塞尔 Kurt Russell
          克里斯·沙利文 Chris Sullivan
          大卫·哈塞尔霍夫 David Hasselhoff
          西尔维斯特·史泰龙 Sylvester Stallone
          杨紫琼 Michelle Yeoh

    ◎简  介

      火箭浣熊(布莱德利·库珀 Bradley Cooper 饰)偷走了大祭司阿耶莎(伊丽莎白·德比齐 Elizabeth Debicki 饰)的能量电池,包括星爵(克里斯·帕拉特 Chris Pratt 饰)、卡魔拉(佐伊·索尔达娜 Zoe Saldana 饰)、德拉克斯(戴夫·巴蒂斯塔 Dave Bautista 饰)在内的一行人遭到了后者派出的舰队的袭击。一个神秘人物乘坐着飞船救下了银河护卫队的众人,而驾驶着飞船的不是别人,竟然正是星爵的亲生父亲伊戈(库尔特·拉塞尔 Kurt Russell 饰)。
      在伊戈的带领下,星爵、卡魔拉和德拉克斯来到了由伊戈一手制造的星球上,而剩下的成员们则着手修复损坏的飞船。那边厢,阿耶莎委托勇度(迈克尔·鲁克 Michael Rooker 饰)抓住星爵替自己报仇,而卡魔拉亦渐渐发现了伊戈和善面目下隐藏的巨大阴谋。

    Video
    ID                                       : 1
    Format                                   : HEVC
    Format/Info                              : High Efficiency Video Coding
    Format profile                           : Main [email protected]@High
    Codec ID                                 : V_MPEGH/ISO/HEVC
    Duration                                 : 2 h 15 min
    Bit rate                                 : 20.5 Mb/s
    Width                                    : 3 840 pixels
    Height                                   : 1 606 pixels
    Display aspect ratio                     : 2.40:1
    Frame rate mode                          : Constant
    Frame rate                               : 23.976 (24000/1001) FPS
    Color space                              : YUV
    Chroma subsampling                       : 4:2:0
    Bit depth                                : 10 bits
    Bits/(Pixel*Frame)                       : 0.139
    Stream size                              : 19.4 GiB (63%)
    Title                                    : Guardians.of.the.Galaxy.Vol.2.2017.2160p.BluRay.x265.10bit.SDR.DTS-HD.MA.TrueHD.7.1.Atmos-SWTYBLZ
    Writing library                          : x265 2.5b4a5bcfe29c7:[Windows][GCC 4.9.3][64 bit] 10bit
    Encoding settings                        : cpuid=1173503 / frame-threads=16 / numa-pools=24,24,24,24 / wpp / no-pmode / no-pme / no-psnr / no-ssim / log-level=2 / input-csp=1 / input-res=3840x1606 / interlace=0 / total-frames=0 / level-idc=51 / high-tier=1 / uhd-bd=0 / ref=3 / no-allow-non-conformance / repeat-headers / annexb / aud / hrd / info / hash=0 / no-temporal-layers / no-open-gop / min-keyint=1 / keyint=24 / bframes=4 / b-adapt=2 / b-pyramid / bframe-bias=0 / rc-lookahead=25 / lookahead-slices=4 / scenecut=40 / no-intra-refresh / ctu=64 / min-cu-size=8 / no-rect / no-amp / max-tu-size=32 / tu-inter-depth=1 / tu-intra-depth=1 / limit-tu=0 / rdoq-level=0 / dynamic-rd=0.00 / no-ssim-rd / signhide / no-tskip / nr-intra=0 / nr-inter=0 / no-constrained-intra / strong-intra-smoothing / max-merge=2 / limit-refs=3 / no-limit-modes / me=1 / subme=2 / merange=57 / temporal-mvp / weightp / no-weightb / no-analyze-src-pics / deblock=0:0 / no-sao / no-sao-non-deblock / rd=3 / no-early-skip / rskip / no-fast-intra / no-tskip-fast / no-cu-lossless / no-b-intra / rdpenalty=0 / psy-rd=2.00 / psy-rdoq=0.00 / no-rd-refine / analysis-reuse-mode=0 / no-lossless / cbqpoffs=0 / crqpoffs=0 / rc=crf / crf=16.0 / qcomp=0.60 / qpstep=4 / stats-write=0 / stats-read=0 / vbv-maxrate=160000 / vbv-bufsize=160000 / vbv-init=0.9 / crf-max=0.0 / crf-min=0.0 / ipratio=1.40 / pbratio=1.30 / aq-mode=1 / aq-strength=1.00 / cutree / zone-count=0 / no-strict-cbr / qg-size=32 / no-rc-grain / qpmax=69 / qpmin=0 / no-const-vbv / sar=1 / overscan=0 / videoformat=5 / range=0 / colorprim=2 / transfer=2 / colormatrix=2 / chromaloc=0 / display-window=0 / max-cll=0,0 / min-luma=0 / max-luma=1023 / log2-max-poc-lsb=8 / vui-timing-info / vui-hrd-info / slices=1 / opt-qp-pps / opt-ref-list-length-pps / no-multi-pass-opt-rps / scenecut-bias=0.05 / no-opt-cu-delta-qp / no-aq-motion / no-hdr / no-hdr-opt / no-dhdr10-opt / analysis-reuse-level=5 / scale-factor=0 / refine-intra=0 / refine-inter=0 / refine-mv=0 / no-limit-sao / ctu-info=0
    Language                                 : English
    Default                                  : Yes
    Forced                                   : No

    Audio #1
    ID                                       : 2
    Format                                   : TrueHD
    Format profile                           : TrueHD+Atmos / TrueHD
    Codec ID                                 : A_TRUEHD
    Duration                                 : 2 h 15 min
    Bit rate mode                            : Variable
    Bit rate                                 : 7 508 kb/s
    Maximum bit rate                         : 11.3 Mb/s
    Channel(s)                               : Object Based / 8 channels
    Channel positions                        : Object Based / Front: L C R, Side: L R, Back: L R, LFE
    Sampling rate                            :  / 48.0 kHz
    Frame rate                               : 1 200.000 FPS (40 spf)
    Compression mode                         : Lossless
    Delay relative to video                  : 32 ms
    Stream size                              : 7.12 GiB (23%)
    Title                                    : Guardians.of.the.Galaxy.Vol.2.2017.2160p.BluRay.x265.10bit.SDR.DTS-HD.MA.TrueHD.7.1.Atmos-SWTYBLZ
    Language                                 : English
    Default                                  : Yes
    Forced                                   : No

    Audio #2
    ID                                       : 3
    Format                                   : DTS
    Format/Info                              : Digital Theater Systems
    Format profile                           : MA / Core
    Mode                                     : 16
    Format settings, Endianness              : Big
    Codec ID                                 : A_DTS
    Duration                                 : 2 h 15 min
    Bit rate mode                            : Variable / Constant
    Bit rate                                 : 3 840 kb/s / 1 509 kb/s
    Channel(s)                               : 8 channels / 6 channels
    Channel positions                        : Front: L C R, Side: L R, Back: L R, LFE / Front: L C R, Side: L R, LFE
    Sampling rate                            : 48.0 kHz
    Frame rate                               : 93.750 FPS (512 spf)
    Bit depth                                : 24 bits
    Compression mode                         : Lossless / Lossy
    Stream size                              : 3.64 GiB (12%)
    Title                                    : Guardians.of.the.Galaxy.Vol.2.2017.2160p.BluRay.x265.10bit.SDR.DTS-HD.MA.TrueHD.7.1.Atmos-SWTYBLZ
    Language                                 : English
    Default                                  : No
    Forced                                   : No

    Audio #3
    ID                                       : 4
    Format                                   : AC-3
    Format/Info                              : Audio Coding 3
    Format settings, Endianness              : Big
    Codec ID                                 : A_AC3
    Duration                                 : 2 h 15 min
    Bit rate mode                            : Constant
    Bit rate                                 : 640 kb/s
    Channel(s)                               : 6 channels
    Channel positions                        : Front: L C R, Side: L R, LFE
    Sampling rate                            : 48.0 kHz
    Frame rate                               : 31.250 FPS (1536 spf)
    Bit depth                                : 16 bits
    Compression mode                         : Lossy
    Delay relative to video                  : 31 ms
    Stream size                              : 622 MiB (2%)
    Title                                    : Guardians.of.the.Galaxy.Vol.2.2017.2160p.BluRay.x265.10bit.SDR.DTS-HD.MA.TrueHD.7.1.Atmos-SWTYBLZ
    Language                                 : English
    Service kind                             : Complete Main
    Default                                  : No
    Forced                                   : No

    Text #1
    ID                                       : 5
    Format                                   : UTF-8
    Codec ID                                 : S_TEXT/UTF8
    Codec ID/Info                            : UTF-8 Plain Text
    Duration                                 : 2 h 14 min
    Bit rate                                 : 48 b/s
    Count of elements                        : 1630
    Stream size                              : 47.8 KiB (0%)
    Title                                    : English-SRT
    Language                                 : English
    Default                                  : Yes
    Forced                                   : No

    Text #2
    ID                                       : 6
    Format                                   : PGS
    Muxing mode                              : zlib
    Codec ID                                 : S_HDMV/PGS
    Codec ID/Info                            : Picture based subtitle format used on BDs/HD-DVDs
    Duration                                 : 2 h 14 min
    Bit rate                                 : 36.1 kb/s
    Count of elements                        : 3946
    Stream size                              : 34.8 MiB (0%)
    Title                                    : English-PGS
    Language                                 : English
    Default                                  : No
    Forced                                   : No

    Text #3
    ID                                       : 7
    Format                                   : PGS
    Muxing mode                              : zlib
    Codec ID                                 : S_HDMV/PGS
    Codec ID/Info                            : Picture based subtitle format used on BDs/HD-DVDs
    Duration                                 : 2 h 14 min
    Bit rate                                 : 29.8 kb/s
    Count of elements                        : 3236
    Stream size                              : 28.7 MiB (0%)
    Title                                    : French-PGS
    Language                                 : French
    Default                                  : No
    Forced                                   : No

    Text #4
    ID                                       : 8
    Format                                   : PGS
    Muxing mode                              : zlib
    Codec ID                                 : S_HDMV/PGS
    Codec ID/Info                            : Picture based subtitle format used on BDs/HD-DVDs
    Duration                                 : 2 h 14 min
    Bit rate                                 : 30.0 kb/s
    Count of elements                        : 3208
    Stream size                              : 28.9 MiB (0%)
    Title                                    : Spanish-PGS
    Language                                 : Spanish
    Default                                  : No
    Forced                                   : No

    Text #5
    ID                                       : 9
    Format                                   : PGS
    Muxing mode                              : zlib
    Codec ID                                 : S_HDMV/PGS
    Codec ID/Info                            : Picture based subtitle format used on BDs/HD-DVDs
    Duration                                 : 2 h 14 min
    Bit rate                                 : 17.7 kb/s
    Count of elements                        : 3176
    Stream size                              : 17.0 MiB (0%)
    Title                                    : Chinese-PGS
    Language                                 : Chinese
    Default                                  : No
    Forced                                   : No

    Text #6
    ID                                       : 10
    Format                                   : PGS
    Muxing mode                              : zlib
    Codec ID                                 : S_HDMV/PGS
    Codec ID/Info                            : Picture based subtitle format used on BDs/HD-DVDs
    Duration                                 : 2 h 14 min
    Bit rate                                 : 26.0 kb/s
    Count of elements                        : 2954
    Stream size                              : 25.0 MiB (0%)
    Title                                    : French-PGS
    Language                                 : French
    Default                                  : No
    Forced                                   : No

    Text #7
    ID                                       : 11
    Format                                   : PGS
    Muxing mode                              : zlib
    Codec ID                                 : S_HDMV/PGS
    Codec ID/Info                            : Picture based subtitle format used on BDs/HD-DVDs
    Duration                                 : 2 h 14 min
    Bit rate                                 : 31.4 kb/s
    Count of elements                        : 3070
    Stream size                              : 30.2 MiB (0%)
    Title                                    : German-PGS
    Language                                 : German
    Default                                  : No
    Forced                                   : No

    Text #8
    ID                                       : 12
    Format                                   : PGS
    Muxing mode                              : zlib
    Codec ID                                 : S_HDMV/PGS
    Codec ID/Info                            : Picture based subtitle format used on BDs/HD-DVDs
    Duration                                 : 2 h 14 min
    Bit rate                                 : 22.3 kb/s
    Count of elements                        : 2824
    Stream size                              : 21.6 MiB (0%)
    Title                                    : Japanese-PGS
    Language                                 : Japanese
    Default                                  : No
    Forced                                   : No

    Text #9
    ID                                       : 13
    Format                                   : PGS
    Muxing mode                              : zlib
    Codec ID                                 : S_HDMV/PGS
    Codec ID/Info                            : Picture based subtitle format used on BDs/HD-DVDs
    Duration                                 : 2 h 14 min
    Bit rate                                 : 20.7 kb/s
    Count of elements                        : 3290
    Stream size                              : 19.9 MiB (0%)
    Title                                    : Chinese-PGS
    Language                                 : Chinese
    Default                                  : No
    Forced                                   : No

    Menu
    00:00:00.000                             : en:Chapter 1
    00:09:56.178                             : en:Chapter 2
    00:15:10.117                             : en:Chapter 3
    00:22:14.082                             : en:Chapter 4
    00:32:33.701                             : en:Chapter 5
    00:36:52.126                             : en:Chapter 6
    00:42:29.171                             : en:Chapter 7
    00:48:03.463                             : en:Chapter 8
    00:53:18.904                             : en:Chapter 9
    00:58:45.939                             : en:Chapter 10
    01:05:52.239                             : en:Chapter 11
    01:11:12.434                             : en:Chapter 12
    01:18:43.593                             : en:Chapter 13
    01:23:55.321                             : en:Chapter 14
    01:30:24.752                             : en:Chapter 15
    01:39:36.178                             : en:Chapter 16
    01:47:06.211                             : en:Chapter 17
    01:54:21.604                             : en:Chapter 18
    01:58:53.709                             : en:Chapter 19
    02:07:13.459                             : en:Chapter 20


    22892e2a73fd70f3aab4f37c828ece21.jpg
    1851879d8cf4cc3c14363c355a3e3af3.jpg
    e8f921f62f393605cb693b8d4f663c6a.jpg
    edbba84767f4633a5ebb3d2982e9c0c0.jpg

    伟德app手机版客户端下载:

    xiazai.jpg
    游客,如果您要查看本帖隐藏内容请伟德app手机版客户端  VIP免伟德app手机版客户端查看、免金币下载全站资源 自助在线开通VIP



    支付宝扫一扫 打赏

    微信扫一扫 打赏
    郑重声明 HDSky所有影视作品来自互联网公开渠道,内容系自动转载供网友交流学习,影视版权均归原电影公司所有, 我们不提供任何影片压制、存储及传播服务,如果喜欢请购买正版!转载内容如有侵权请与 [email protected] 联系 我们将尽快删除!
    0主题 0好友 2612积分
    荣升主角 Lv.5
    Rank: 6Rank: 6
  • TA的每日心情
    开心
    10 小时前
  • 签到天数: 405 天[LV.9]以坛为家II
    激情
    1356
    金币
    734
    威望
    0
    积分
    2612
    帖子
    522
    沙发
    发表于 2017-10-11 16:36:10 |只看该作者
    谢谢分享
    伟德app手机版客户端 使用道具 举报
    0主题 0好友 390积分
    群众演员 Lv.3
    Rank: 3Rank: 3 该用户从未签到
    激情
    274
    金币
    -2
    威望
    0
    积分
    390
    帖子
    118
    板凳
    发表于 2017-10-11 17:54:10 |只看该作者
    先支持一个了额~~~~~~~~~~~~~
    伟德app手机版客户端 使用道具 举报
    0主题 0好友 2612积分
    荣升主角 Lv.5
    Rank: 6Rank: 6
  • TA的每日心情
    开心
    10 小时前
  • 签到天数: 405 天[LV.9]以坛为家II
    激情
    1356
    金币
    734
    威望
    0
    积分
    2612
    帖子
    522
    地板
    发表于 2017-10-11 18:05:44 |只看该作者
    谢谢谢谢分享
    伟德app手机版客户端 使用道具 举报
    0主题 0好友 90积分
    普通观众 Lv.2
    Rank: 2
  • TA的每日心情
    开心
    2017-10-11 19:05
  • 签到天数: 2 天[LV.1]初来乍到
    激情
    58
    金币
    0
    威望
    0
    积分
    90
    帖子
    32
    5#
    发表于 2017-10-11 19:04:22 |只看该作者
    感谢楼主分享
    伟德app手机版客户端 使用道具 举报
    0主题 0好友 304积分
    群众演员 Lv.3
    Rank: 3Rank: 3
  • TA的每日心情
    擦汗
    2017-4-17 20:17
  • 签到天数: 4 天[LV.2]偶尔看看I
    激情
    235
    金币
    -4
    威望
    0
    积分
    304
    帖子
    73
    6#
    发表于 2017-10-11 19:35:58 |只看该作者
    感谢楼主分享
    伟德app手机版客户端 使用道具 举报
    0主题 0好友 875积分
    专业龙套 Lv.4
    Rank: 4
  • TA的每日心情

    4 天前
  • 签到天数: 99 天[LV.6]常住居民II
    激情
    559
    金币
    19
    威望
    0
    积分
    875
    帖子
    297
    7#
    发表于 2017-10-11 20:44:39 |只看该作者
    下载下载下载看看
    伟德app手机版客户端 使用道具 举报
    1主题 0好友 318积分
    群众演员 Lv.3
    Rank: 3Rank: 3
  • TA的每日心情
    无聊
    昨天 12:28
  • 签到天数: 42 天[LV.5]常住居民I
    激情
    189
    金币
    29
    威望
    5
    积分
    318
    帖子
    90
    8#
    发表于 2017-10-11 21:32:20 |只看该作者
    看过第一部,不错,插曲令人印象深刻,红骨头乐队的Come And Get Your Love,配合星爵的舞步,感觉瞬间释放了
    伟德app手机版客户端 使用道具 举报
    0主题 0好友 1238积分
    荣升主角 Lv.5
    Rank: 6Rank: 6
  • TA的每日心情
    奋斗
    昨天 23:11
  • 签到天数: 181 天[LV.7]常住居民III
    激情
    605
    金币
    396
    威望
    0
    积分
    1238
    帖子
    237
    9#
    发表于 2017-10-11 22:11:22 |只看该作者
    感谢楼主分享,放出蓝光资源
    伟德app手机版客户端 使用道具 举报
    0主题 0好友 127积分
    普通观众 Lv.2
    Rank: 2
  • TA的每日心情
    开心
    5 天前
  • 签到天数: 8 天[LV.3]偶尔看看II
    激情
    87
    金币
    9
    威望
    0
    积分
    127
    帖子
    31
    10#
    发表于 2017-10-11 22:11:34 |只看该作者
    tyjfhfhjjhkgjglh
    伟德app手机版客户端 使用道具 举报
    您需要登录后才可以回帖 登录 | 立即注册
    关注微博
    Archiver|手机版|HDSky伟德国际1946手机版www.bv1946.com   GMT+8, 2017-10-20 22:20 , Processed in 0.518661 second(s), 33 queries .
    Powered by Discuz! X2.5 © 2012-2016 HDSky Inc.
    回顶部