HDSky伟德国际1946手机版www.bv1946.com

 找回密码
 立即注册
用QQ账号登陆 用微博账号登陆 只需一步,快速开始
查看: 5202|伟德app手机版客户端: 142
打印 上一主题 下一主题

[4K视频] [4K伟德国际1946手机版短片]中国.秘鲁.巴西.印度[2160P/MKV/4.97GB]

  [复制链接]
4199主题 30好友 449万积分
管理员
Rank: 9Rank: 9Rank: 9
  • TA的每日心情
    开心
    2016-10-13 10:31
  • 签到天数: 133 天[LV.7]常住居民III
    激情
    16616
    金币
    4419171
    威望
    27215
    积分
    4499091
    帖子
    8724
    宣传大使 原创先锋奖 回帖大师 最佳帅哥奖 热心助人奖 管理人员勋章 财富大师奖 巡查大使勋章 特殊贡献奖 魅力会员奖 个性SHOW奖 时尚达人 在线王 天秤座 终身成就奖 知名影评人勋章 精品大师奖
    跳转到指定楼层
    楼主
    发表于 2016-3-30 11:51:47 |只看该作者 |倒序浏览
    1.jpg
    3.jpg
    5.jpg
    7.jpg
    9.jpg

    General #1
    Unique ID : 182999798240638438219418248459937946926(0x89AC7AA7ED0BC78E9FBF71E778C09D2E)
    Complete name : 7 Emotions 7 Wonders Part 1 (4K 2160p UHDTV HEVC AC3 En) Lotos2007.mkv
    Format : Matroska
    Format version : Version 4/Version 2
    File size : 4.97GiB
    Duration : 55mn 19s
    Overall bit rate : 12.9 Mbps
    Encoded date : UTC 2016-01-08 09:47:42
    Writing application : mkvmerge v8.2.0 ('World of Adventure') 32bit
    Writing library : libebml v1.3.1 + libmatroska v1.4.2

    Video #1
    ID : 1
    Format : HEVC
    Format/Info : High Efficiency Video Coding
    Format profile : High@L5.1@Main
    Codec ID : V_MPEGH/ISO/HEVC
    Duration : 55min 19s
    Bit rate : 12.4 Mbps
    Width : 3840 pixels
    Height : 2160 pixels
    Display aspect ratio : 16:9
    Frame rate mode : Constant
    Frame rate : 25.000 fps
    Color space : YUV
    Chroma subsampling : 4:2:0
    Bit depth : 10 bits
    Bits/(Pixel*Frame) : 0.060
    Stream size : 4.80 GiB (97%)
    Writing library : x265 1.7:[Mac OS X][clang 5.1.0][64 bit] 16bpp
    Encoding settings : wpp/ctu=64 / min-cu-size=8 / max-tu-size=32 / tu-inter-depth=1 / me=1 / psy=1 / subme=2 / merange=57 / no-rect / no-amp / max-merge=2 / temporal-mvp / no-early-skip /  rdpenalty=0 / no-tskip / no-tskip-fast / strong-intra-smoot
    Default : Yes
    Forced : No

    Audio #1
    ID : 2
    Format : AC-3
    Format/Info : Audio Coding 3
    Mode extension : CM (complete main)
    Format settings, Endianness : Big
    Codec ID : A_AC3
    Duration : 55min 19s
    Bit rate mode : Constant  
    Bit rate : 448 Kbps  
    Channel(s) : 2 channels
    Channel positions : Front: L R
    Sampling rate : 48.0 KHz
    Frame rate : 31.250 fps (1536 spf)
    Compression mode : Lossy
    Stream size : 177 MiB (3%)
    Language : English
    Default : Yes
    Forced : No
    播放器:potplayer
    建议使用极速迅雷来高速下载!最高峰值12MB

    BT种子文件百度云盘
    伟德app手机版客户端下载:

    xiazai.jpg
    游客,如果您要查看本帖隐藏内容请伟德app手机版客户端  VIP免伟德app手机版客户端查看、免金币下载全站资源 自助在线开通VIP



    支付宝扫一扫 打赏

    微信扫一扫 打赏
    郑重声明 HDSky所有影视作品来自互联网公开渠道,内容系自动转载供网友交流学习,影视版权均归原电影公司所有, 我们不提供任何影片压制、存储及传播服务,如果喜欢请购买正版!转载内容如有侵权请与 admin@hdsky.net 联系 我们将尽快删除!
    0主题 0好友 480积分
    群众演员 Lv.3
    Rank: 3Rank: 3
  • TA的每日心情
    难过
    2016-2-28 09:33
  • 签到天数: 5 天[LV.2]偶尔看看I
    激情
    385
    金币
    58
    威望
    0
    积分
    480
    帖子
    37
    沙发
    发表于 2016-3-30 13:20:08 |只看该作者
    很好的一部片子
    伟德app手机版客户端 使用道具 举报
    1主题 0好友 2085积分
    荣升主角 Lv.5
    Rank: 6Rank: 6
  • TA的每日心情
    郁闷
    5 天前
  • 签到天数: 294 天[LV.8]以坛为家I
    激情
    1317
    金币
    337
    威望
    0
    积分
    2085
    帖子
    431
    板凳
    发表于 2016-3-30 13:43:47 |只看该作者
    thanks for the sharing
    伟德app手机版客户端 使用道具 举报
    0主题 0好友 199积分
    普通观众 Lv.2
    Rank: 2
  • TA的每日心情
    开心
    2017-11-24 15:07
  • 签到天数: 12 天[LV.3]偶尔看看II
    激情
    108
    金币
    7
    威望
    0
    积分
    199
    帖子
    80
    地板
    发表于 2016-3-30 15:40:37 |只看该作者
    谢谢分享!!!
    伟德app手机版客户端 使用道具 举报
    0主题 0好友 617积分
    专业龙套 Lv.4
    Rank: 4
  • TA的每日心情
    无聊
    2016-11-17 08:32
  • 签到天数: 38 天[LV.5]常住居民I
    激情
    406
    金币
    75
    威望
    10
    积分
    617
    帖子
    116
    5#
    发表于 2016-3-30 16:39:31 |只看该作者
    画面不错 感谢啊
    伟德app手机版客户端 使用道具 举报
    0主题 0好友 2997积分
    荣升主角 Lv.5
    Rank: 6Rank: 6
  • TA的每日心情

    2017-2-6 19:22
  • 签到天数: 414 天[LV.9]以坛为家II
    激情
    1432
    金币
    1105
    威望
    5
    积分
    2997
    帖子
    449
    6#
    发表于 2016-3-30 17:40:32 |只看该作者
    谢谢楼主分享
    伟德app手机版客户端 使用道具 举报
    1主题 0好友 3518积分
    领衔主演 Lv.6
    Rank: 8Rank: 8
  • TA的每日心情
    开心
    2017-11-19 00:43
  • 签到天数: 543 天[LV.9]以坛为家II
    激情
    1414
    金币
    1013
    威望
    100
    积分
    3518
    帖子
    891
    7#
    发表于 2016-3-30 18:46:21 |只看该作者
    感謝樓主,好片提供.
    伟德app手机版客户端 使用道具 举报
    0主题 0好友 369积分
    群众演员 Lv.3
    Rank: 3Rank: 3
  • TA的每日心情
    开心
    2016-4-27 20:05
  • 签到天数: 34 天[LV.5]常住居民I
    激情
    176
    金币
    85
    威望
    0
    积分
    369
    帖子
    106
    8#
    发表于 2016-3-30 20:32:07 |只看该作者
    非常好的片子
    伟德app手机版客户端 使用道具 举报
    9#
    无效楼层,该帖已经被删除
    0主题 0好友 1790积分
    荣升主角 Lv.5
    Rank: 6Rank: 6
  • TA的每日心情
    开心
    2017-11-30 22:06
  • 签到天数: 18 天[LV.4]偶尔看看III
    激情
    1253
    金币
    11
    威望
    0
    积分
    1790
    帖子
    526
    10#
    发表于 2016-3-30 20:56:17 |只看该作者
    是中文的吗
    伟德app手机版客户端 使用道具 举报
    您需要登录后才可以回帖 登录 | 立即注册
    支付宝扫码领红包
    Archiver|手机版|HDSky伟德国际1946手机版www.bv1946.com   GMT+8, 2018-2-19 21:40 , Processed in 0.211059 second(s), 38 queries .
    Powered by Discuz! X2.5 © 2012-2016 HDSky Inc.
    回顶部