HDSky伟德国际1946手机版www.bv1946.com

 找回密码
 立即注册
用QQ账号登陆 用微博账号登陆 只需一步,快速开始
查看: 11815|伟德app手机版客户端: 383
打印 上一主题 下一主题

[4K视频] 全球最美城市夜景:4K[迪拜Dubai]无与伦比的华丽璀璨3840×2160p

  [复制链接]
4199主题 30好友 449万积分
管理员
Rank: 9Rank: 9Rank: 9
  • TA的每日心情
    开心
    2016-10-13 10:31
  • 签到天数: 133 天[LV.7]常住居民III
    激情
    16616
    金币
    4419171
    威望
    27215
    积分
    4499091
    帖子
    8724
    宣传大使 原创先锋奖 回帖大师 最佳帅哥奖 热心助人奖 管理人员勋章 财富大师奖 巡查大使勋章 特殊贡献奖 魅力会员奖 个性SHOW奖 时尚达人 在线王 天秤座 终身成就奖 知名影评人勋章 精品大师奖
    跳转到指定楼层
    楼主
    发表于 2015-4-27 14:45:49 |只看该作者 |倒序浏览
    4k1.jpg
    4k2.jpg
    4k3.jpg

    一座超级土豪的城市,金碧辉煌的城市夜景。samsung三星4K演示片视频。

    视频参数信息:
    General
    ID                             : 0 (0x0)
    Complete name                  : T:\4K中国\samsung三星4K演示片uhdtv迪拜Dubai.ts
    Format                         : MPEG-TS
    File size                      : 656 MiB
    Duration                       : 1mn 47s
    Overall bit rate mode          : Constant
    Overall bit rate               : 51.4 Mbps

    Video
    ID                             : 257 (0x101)
    Menu ID                        : 1 (0x1)
    Format                         : HEVC
    Format/Info                    : High Efficiency Video Coding
    Codec ID                       : 36
    Duration                       : 1mn 46s
    Bit rate                       : 48.7 Mbps
    Stream size                    : 616 MiB (94%)

    Audio
    ID                             : 258 (0x102)
    Menu ID                        : 1 (0x1)
    Format                         : AAC
    Format/Info                    : Advanced Audio Codec
    Format version                 : Version 4
    Format profile                 : LC
    Muxing mode                    : ADTS
    Codec ID                       : 15
    Duration                       : 1mn 46s
    Bit rate mode                  : Variable
    Bit rate                       : 137 Kbps
    Channel(s)                     : 2 channels
    Channel positions              : Front: L R
    Sampling rate                  : 48.0 KHz
    Compression mode               : Lossy
    Stream size                    : 1.73 MiB (0%)


    其它关键信息:

    +类型:三星4K UHDTV视频演示片
    +视频格式:TS
    +文件大小:655mb
    +视频编码:HEVC/H.265
    +PS: H265需要软、硬件支持才能播放。

    每一个镜头画面,都值得仔仔细细欣赏,反正我忍不住看了10多遍!

    推荐在50寸以上屏幕观看。否则是体验不了这部片的真实感受。


    伟德app手机版客户端下载:

    xiazai.jpg
    游客,如果您要查看本帖隐藏内容请伟德app手机版客户端  VIP免伟德app手机版客户端查看、免金币下载全站资源 自助在线开通VIP



    支付宝扫一扫 打赏

    微信扫一扫 打赏
    郑重声明 HDSky所有影视作品来自互联网公开渠道,内容系自动转载供网友交流学习,影视版权均归原电影公司所有, 我们不提供任何影片压制、存储及传播服务,如果喜欢请购买正版!转载内容如有侵权请与 admin@hdsky.net 联系 我们将尽快删除!
    0主题 0好友 356积分
    群众演员 Lv.3
    Rank: 3Rank: 3
  • TA的每日心情
    难过
    2015-10-17 14:46
  • 签到天数: 34 天[LV.5]常住居民I
    激情
    174
    金币
    37
    威望
    30
    积分
    356
    帖子
    82
    沙发
    发表于 2015-4-27 15:55:02 |只看该作者
    看看...............
    伟德app手机版客户端 使用道具 举报
    0主题 0好友 2276积分
    荣升主角 Lv.5
    Rank: 6Rank: 6
  • TA的每日心情
    郁闷
    2016-3-18 18:41
  • 签到天数: 260 天[LV.8]以坛为家I
    激情
    897
    金币
    1019
    威望
    0
    积分
    2276
    帖子
    345
    板凳
    发表于 2015-4-27 19:28:37 |只看该作者
    感谢分享。
    伟德app手机版客户端 使用道具 举报
    0主题 0好友 5积分
    初级观众 Lv.1
    Rank: 1 该用户从未签到
    激情
    3
    金币
    1
    威望
    0
    积分
    5
    帖子
    1
    地板
    发表于 2015-4-28 14:13:33 |只看该作者
    dddddddddddddddddddddddddddddd
    伟德app手机版客户端 使用道具 举报
    0主题 0好友 67积分
    普通观众 Lv.2
    Rank: 2
  • TA的每日心情
    开心
    2015-4-28 16:10
  • 签到天数: 1 天[LV.1]初来乍到
    激情
    43
    金币
    -1
    威望
    0
    积分
    67
    帖子
    25
    5#
    发表于 2015-4-28 16:13:09 |只看该作者
    感谢分享!
    伟德app手机版客户端 使用道具 举报
    1主题 0好友 240积分
    群众演员 Lv.3
    Rank: 3Rank: 3
  • TA的每日心情
    开心
    2015-7-20 22:33
  • 签到天数: 28 天[LV.4]偶尔看看III
    激情
    127
    金币
    59
    威望
    0
    积分
    240
    帖子
    53
    6#
    发表于 2015-4-28 22:12:48 |只看该作者
    值得欣赏。谢谢分享。
    伟德app手机版客户端 使用道具 举报
    2主题 0好友 719积分
    专业龙套 Lv.4
    Rank: 4
  • TA的每日心情

    2016-5-15 21:49
  • 签到天数: 72 天[LV.6]常住居民II
    激情
    331
    金币
    207
    威望
    0
    积分
    719
    帖子
    181
    7#
    发表于 2015-4-29 20:10:36 |只看该作者
    感谢分享。
    伟德app手机版客户端 使用道具 举报
    0主题 0好友 109积分
    普通观众 Lv.2
    Rank: 2
  • TA的每日心情
    奋斗
    2015-5-9 18:15
  • 签到天数: 9 天[LV.3]偶尔看看II
    激情
    64
    金币
    17
    威望
    5
    积分
    109
    帖子
    18
    8#
    发表于 2015-4-29 20:24:46 |只看该作者
    来看效果的
    伟德app手机版客户端 使用道具 举报
    0主题 0好友 108积分
    普通观众 Lv.2
    Rank: 2 该用户从未签到
    激情
    12
    金币
    92
    威望
    0
    积分
    108
    帖子
    4
    9#
    发表于 2015-5-1 13:09:52 |只看该作者
    感谢楼主分享
    伟德app手机版客户端 使用道具 举报
    0主题 0好友 5积分
    初级观众 Lv.1
    Rank: 1 该用户从未签到
    激情
    3
    金币
    1
    威望
    0
    积分
    5
    帖子
    1
    10#
    发表于 2015-5-3 18:25:58 |只看该作者
    非常感谢楼主的分享
    伟德app手机版客户端 使用道具 举报
    您需要登录后才可以回帖 登录 | 立即注册
    支付宝扫码领红包
    Archiver|手机版|HDSky伟德国际1946手机版www.bv1946.com   GMT+8, 2018-2-19 21:37 , Processed in 0.107070 second(s), 37 queries .
    Powered by Discuz! X2.5 © 2012-2016 HDSky Inc.
    回顶部